Wiatr / The Wind (2018) [WEB DL] [XViD MORS] [Napi
Seed:21
Leech:0

Miłość jest wszystkim (2018) [REPACK] [BDRip] [
Seed:33
Leech:3

Blaze (2018) [BDRip] [XviD KiT] [Lektor PL]
Seed:37
Leech:23

Prodigy  Opętany / The Prodigy (2019) [WEB DL] [X
Seed:8
Leech:4

Bel Canto (2018) [720p] [BluRay] [x264 KiT] [Lekto
Seed:90
Leech:22

Wszystkie kolory trawy / Grass Is Greener (2019) [
Seed:21
Leech:6

Sędzia i Kat / American Hangman (2019) [480p] [WE
Seed:10
Leech:0

Rodzinne zdjęcie / Photo de famille (2018) [WEB D
Seed:0
Leech:0

Stoker (2013) [DVDRip XviD] [AC3 GR4PE] [Lektor PL
Seed:0
Leech:0

Wizyta / The Visit (2015) [480p] [BRRip] [XviD] [A
Seed:34
Leech:1

Wynajmij sobie chłopaka / The Perfect Date (2019)
Seed:18
Leech:0

Escape Room (2019) [WEB DL] [XviD KiT] [Lektor PL]
Seed:37
Leech:0

Ścigane / Close (2019) [480p] [BRRip] [XviD] [AC3
Seed:15
Leech:0

Seven in Heaven (2018) [WEB DL] [XviD KiT] [Lektor
Seed:8
Leech:1

Talon Falls (2018) [480p] [BRRip] [XviD] [AC3 LLA]
Seed:10
Leech:3

Dearest Sister (2016) [WEB DL] [XVID OzW] [Napisy
Seed:13
Leech:0

Plan lotu   Flightplan (2005) [DVDRip] [XviD GR4PE
Seed:0
Leech:0

Łzy słońca   Tears of the Sun *2003* [BRRip Xvi
Seed:0
Leech:0

Żołnierze Panfiłowa / Panfilov's 28 / Battle fo
Seed:14
Leech:0

Т 34 (2018) [720p] [WEB DL] [XviD] [AC3 LTS] [Nap
Seed:0
Leech:0

Życie za śmiech / Laugh or Die / Suomen hauskin
Seed:0
Leech:0

Transcendencja / Transcendence (2014) [DVDRip XviD
Seed:0
Leech:0

Billions (2019) [S04E06] [1080p] [AMZN] [WEB DL] [
Seed:2
Leech:0

Krwawa zemsta / Savaged (2013) [1080p] [WEB DL] [X
Seed:24
Leech:13

Wojownik / Warrior (2019) [S01E03] [1080p] [AMZN]
Seed:21
Leech:4

W pogoni za szczęściem / The Pursuit of Happynes
Seed:6
Leech:0

Koroner / Coroner (2019) [S01E02] [720p] [WEBRip]
Seed:15
Leech:2

Przejście   The Passage [S01E10] [FINAŁ] [480p]
Seed:0
Leech:0

Inferno (2016) [720p] [BRRip] [XviD] [AC3 LTN] [Le
Seed:32
Leech:2

Jak wytresować smoka 3/How to Train Your Dragon:
Seed:7
Leech:8

Kategorie
Programy

uTorrent

uTorrent


***Torrent***
Kategoria: Polecamy » Thriller

Dodał:
Scorpio
Data dodania:
2016-08-09 16:10:22
Rozmiar: 3.46 GB
Seedów: 0
Peerów: 0
Pobrano: 14 razy

Aktualizuj trackery



Zakładnik z Wall Street - Money Monster *2016* [ PROPER] [1080p] [HC] [WEBRip] [x264] [AAC 2.0-STUTTERSHIT] [ENG]



Produkcja: USA
Gatunek: Dramat, Thriller
Premiera: 20 maja 2016 (Polska), 7 kwietnia 2016 (świat)
Reżyseria: Jodie Foster
Scenariusz: Alan DiFiore, Jim Kouf, Jamie Linden



http://www.filmweb.pl/film/Zak%C5%82adnik+z+Wall+Street-2016-668815
http://www.imdb.com/title/tt2241351/



"Money Monster" to popularny program telewizyjny, którego gwiazda, Lee Gates (George Clooney), zwany "guru Wall Street", doradza widzom, jak i w co inwestować pieniądze. Kiedy słuchający jego finansowych wskazówek Kyle Budwell (Jack O’Connell) traci wszystkie oszczędności, terroryzuje ekipę show i na planie, podczas programu na żywo, grozi Lee śmiercią, jeśli ten nie sprawi, że akcje, w które zainwestował, nie pójdą do góry w ciągu doby. Publiczność telewizyjna zamiera w przerażeniu, oglądalność show rośnie w rekordowym tempie. Ile warte jest życie człowieka?



★ George Clooney .... Lee Gates
★ Julia Roberts .... Patty Fenn
★ Jack O`Connell .... Kyle Budwell
★ Dominic West .... Walt Camby
★ Caitriona Balfe .... Diane Lester
★ Giancarlo Esposito .... Kapitan Powell
★ Christopher Denham .... Ron Sprecher
★ Lenny Venito .... Kamerzysta Lenny



Video
ID          : 1
Format         : AVC
Format/Info        : Advanced Video Codec
Format profile       : High@L4
Format settings, CABAC     : Yes
Format settings, ReFrames    : 4 frames
Codec ID         : avc1
Codec ID/Info       : Advanced Video Coding
Duration         : 1h 34mn
Bit rate mode       : Variable
Bit rate         : 5 002 Kbps
Maximum bit rate       : 40.0 Mbps
Width         : 1 920 pixels
Height         : 1 072 pixels
Display aspect ratio      : 16:9
Original display aspect ratio   : 16:9
Frame rate mode       : Constant
Frame rate        : 25.000 fps
Color space        : YUV
Chroma subsampling      : 4:2:0
Bit depth        : 8 bits
Scan type        : Progressive
Bits/(Pixel*Frame)      : 0.097
Stream size        : 3.31 GiB (96%)
Title         : Money.Monster.2016.PROPER.1080p.HC.WEBRip.x264.AAC2.0-STUTTERSHIT

Audio
ID          : 2
Format         : AAC
Format/Info        : Advanced Audio Codec
Format profile       : LC
Codec ID         : 40
Duration         : 1h 34mn
Bit rate mode       : Constant
Bit rate         : 224 Kbps
Channel(s)        : 2 channels
Channel positions      : Front: L R
Sampling rate       : 44.1 KHz
Frame rate        : 43.066 fps (1024 spf)
Compression mode       : Lossy
Stream size        : 152 MiB (4%)
Title         : Money.Monster.2016.PROPER.1080p.HC.WEBRip.x264.AAC2.0-STUTTERSHIT
Default         : Yes
Alternate group       : 1

Trailer
Screeny
Screen 1:
Screen 1:
Screen 1:
Lista plikówShow/Hide [Pokaż/Ukryj]
Trackery
Tracker URLSeedówPeerówPobrań
http://tracker.electro-torrent.pl/announce
http://tracker.filetracker.pl:8089/announce001
udp://9.rarbg.me:2710/announce000
udp://eddie4.nl:6969/announce000
udp://tracker.leechers-paradise.org:6969/announce000
udp://www.eddie4.nl:6969/announce000
Podobne Pozycje

Komentarze
Dodaj komentarz

Brak komentarzy!