Witamy Guest (Zaloguj) Strona Główna Torrenty Regulamin Pomoc Gry-Online Newsy Forum Kontakt
Tracker Info: Użytkownicy:92766 Torrent(ów):118431 Seed(ów):19912489 Leecher(ów):17203588596 Peer(ów):17223501085 Seed(ów)/Leecher(ów):94%
Użytkownik: Hasło:
Stwórz konto Odzyskiwanie hasła

Kategorie
Filmy :
 » Filmy RMVB6786  
  » Akcja12  
  » Animowane0  
  » Baśń0  
  » Biblijny0  
  » Biograficzne1  
  » Dokumentalne0  
  » Dramat5  
  » Erotyczny0  
  » Familijne0  
  » Fantasy1  
  » Gangsterski0  
  » Historyczne0  
  » Horror2  
  » Katastroficzne0  
  » Komedie3  
  » Kostiumowe0  
  » Kryminał1  
  » Melodramat0  
  » Musical0  
  » Muzyczne0  
  » Obyczajowe0  
  » Płaszcza i szpady0  
  » Polityczny0  
  » Prawniczy0  
  » Przygodowe3  
  » Przyrodnicze0  
  » Psychologiczny0  
  » Religijny0  
  » Romanse0  
  » Science fiction1  
  » Sensacyjne0  
  » Sportowe0  
  » Szpiegowski0  
  » Sztuki Walki0  
  » Thiller9  
  » Westerny0  
  » Wojenne1  
 » Filmy DivX / XviD15127  
  » Akcja59  
  » Animowane49  
  » Baśń0  
  » Biblijny0  
  » Biograficzne25  
  » Dokumentalne2  
  » Dramat106  
  » Erotyczny0  
  » Familijne8  
  » Fantasy28  
  » Gangsterski1  
  » Historyczne3  
  » Horror48  
  » Katastroficzne0  
  » Komedie127  
  » Kostiumowe2  
  » Kryminał9  
  » Melodramat13  
  » Musical0  
  » Muzyczne3  
  » Obyczajowe2  
  » Płaszcza i szpady0  
  » Polityczny0  
  » Prawniczy0  
  » Przygodowe18  
  » Przyrodnicze0  
  » Psychologiczny0  
  » Religijny0  
  » Romanse1  
  » Science fiction5  
  » Sensacyjne7  
  » Sportowe0  
  » Szpiegowski0  
  » Sztuki Walki0  
  » Thriller83  
  » Westerny1  
  » Wojenne7  
 » Filmy DVD-R1572  
  » Akcja1  
  » Animowane2  
  » Baśń0  
  » Biblijny0  
  » Biograficzne0  
  » Dokumentalne0  
  » Dramat1  
  » Erotyczny0  
  » Familijne0  
  » Fantasy0  
  » Gangsterski0  
  » Historyczne0  
  » Horror1  
  » Katastroficzne0  
  » Komedie0  
  » Kostiumowe0  
  » Kryminał0  
  » Melodramat0  
  » Musical0  
  » Muzyczne0  
  » Obyczajowe0  
  » Płaszcza i szpady0  
  » Polityczny0  
  » Prawniczy0  
  » Przygodowe0  
  » Przyrodnicze0  
  » Psychologiczny0  
  » Religijny0  
  » Romanse1  
  » Science fiction0  
  » Sensacyjny0  
  » Sportowe0  
  » Szpiegowski0  
  » Sztuki Walki0  
  » Thiller0  
  » Westerny0  
  » Wojenne0  
 » Filmy X264806  
  » Akcja0  
  » Animowane1  
  » Baśń0  
  » Biblijny0  
  » Biograficzne0  
  » Dokumentalne0  
  » Dramat1  
  » Erotyczny0  
  » Familijne0  
  » Fantasy0  
  » Gangsterski0  
  » Historyczne0  
  » Horror0  
  » Katastroficzne0  
  » Komedie1  
  » Kostiumowe0  
  » Kryminał0  
  » Melodramat0  
  » Musical0  
  » Muzyczny0  
  » Obyczajowe0  
  » Płaszcza i szpady0  
  » Polityczny0  
  » Prawniczy0  
  » Przygodowy0  
  » Przyrodnicze0  
  » Psychologiczny0  
  » Religijny0  
  » Romanse0  
  » Science fiction0  
  » Sensacyjny0  
  » Sportowe0  
  » Szpiegowski0  
  » Sztuki Walki0  
  » Thriller1  
  » Westerny0  
  » Wojenne0  
 » Filmy 3D28  
  » Akcja8  
  » Animowane5  
  » Baśń0  
  » Biblijny0  
  » Biograficzne0  
  » Dokumentalne1  
  » Dramat3  
  » Erotyczny0  
  » Familijne0  
  » Fantasy2  
  » Gangsterski0  
  » Historyczne0  
  » Horror1  
  » Katastroficzne0  
  » Komedie0  
  » Kostiumowe0  
  » Kryminał0  
  » Melodramat0  
  » Musical0  
  » Muzyczny0  
  » Obyczajowy0  
  » Płaszcza i szpady0  
  » Polityczny0  
  » Prawniczy0  
  » Przygodowy0  
  » Przyrodnicze0  
  » Psychologiczny0  
  » Religijny0  
  » Romanse1  
  » Science fiction0  
  » Sensacyjny0  
  » Sportowe0  
  » Szpiegowski0  
  » Sztuki walki0  
  » Thriller1  
  » Western0  
  » Wojenne1  
 » Filmy BluRay10  
Seriale :
 » Seriale Zagraniczne9024  
 » Seriale Polskie2550  
  » Akcja0  
  » Animowane0  
  » Biblijny0  
  » Biograficzne0  
  » Dokumentalne3  
  » Dramat10  
  » Erotyczny0  
  » Familijne0  
  » Fantasy0  
  » Gangsterski0  
  » Historyczne0  
  » Horror0  
  » Katastroficzne0  
  » Komedia6  
  » Kostiumowe0  
  » Kryminał2  
  » Melodramat0  
  » Musical0  
  » Muzyczny0  
  » Obyczajowy10  
Muzyka :
 » Muzyka Polska2564  
  » Niesortowane17  
 » Muzyka Zagraniczna27347  
  » Niesortowane33  
 » Muzyka Soundtracki602  
 » Muzyka Teledyski3033  
Książki :
 » Książki E-Booki3866  
  » Psychologia0  
  » Biograficzne2  
  » Poradniki0  
  » Romanse0  
  » Fantasy0  
  » Podróżnicze2  
  » Kryminał1  
 » Książki Audio Booki980  
  » Psychologia3  
  » Biograficzne1  
  » Poradniki1  
  » Romanse2  
  » Fantasy7  
  » Podróżnicze1  
  » Kryminał2  
 » Książki Komiksy771  
Programy :
 » Programy Linux328  
 » Programy Macintosh76  
 » Programy Windows6757  
  » Niesortowane11  
Anime :
 » Anime Polskie55  
 » Anime Zagraniczne1216  
 » Anime Bajki568  
 » Anime Hentai42  
Inne :
 » Inne śmieszne77  
 » Inne Tapety855  
 » Inne Pozostałe2078  
GSM/PDA :
 » GSM/PDA Tapety157  
 » GSM/PDA Programy493  
 » GSM/PDA Gry418  
 » GSM/PDA Dzwonki242  
 » GSM/PDA Filmy315  
 » GSM/PDA Erotyka31  
Erotyka :
 » Erotyka Filmy15705  
 » Erotyka Zdjęcia3302  
 » Erotyka Gry38  
 » Erotyka Anime43  
 » Erotyka Czasopisma84  
Gry :
 » Gry PS2/PS31134  
 » Gry Xbox/Xbox360871  
 » Gry Inne Konsole365  
 » Gry Poradniki366  
 » Gry PlayStation130  
 » Gry Konsola Wii327  
 » Gry Nintendo102  
 » Gry PSP79  
 » Gry PC5709  
  » Niesortowane119  
  » Akcja7  
  » Strzelaniny3  
  » Logiczne2  
  » Strategiczne2  
  » Przygodowe5  
Dla Dzieci :
 » Dla Dzieci Filmy/Bajki1307  
 » Dla Dzieci Gry61  
 » Dla Dzieci Programy22  
Nawigacje :
 » Nawigacje GPS4  
  » Android0  
  » Windows4  

Zegar

Torrenty




Pages:  1 2 3 ... 20 21 22  »

Rio 2 *2014* [BRRip] [x264] [AC3] [Dubbing PL]
Kategoria: Filmy » Filmy X264 » Animowane
Dodane: 27/07/2014
Rozmiar: 1.74 GB
Wstawił: marcinc33
Seed(ów): 0
Leecher(ów): 0
Pobrane: 0
Komentarzy: 0


Torrent

  • Currently 0.00/5


Gatunek:  Animacja, Komedia, Przygodowy
Produkcja: USA
Premiera:  9 maja 2014(Polska)  20 marca 2014(świat)
Czas trwania: 1 godz. 41 min.
Reżyseria:  Carlos Saldanha
Scenariusz:  Carlos Saldanha, Jenny Bicks, Yoni Brenner, Carlos Kotkin


http://www.filmweb.pl/film/Rio+2-2014-657675
http://www.imdb.com/title/tt2357291/
http://www.youtube.com/watch?v=IkZM1Zc0mBU





Kontynuacja barwnych przygód bohaterów animowanego przeboju z roku 2011. Blu, Julia i trójka ich dzieci wiodą rodzinny tryb życia, ale Julia obawia się, że jej dzieci nigdy nie poznają, co to znaczy być wolnym ptakiem. Ku jej zdumieniu Blu postanawia zabrać całą rodzinę na wyprawę do dżungli. Wyruszają do Amazonii, gdzie na ich trop wpada dawny przeciwnik, Nigel.



Jesse Eisenberg. - Blu  (głos)
Anne Hathaway.. - Jewel   (głos)
Jemaine Clement. - Nigel  (głos)
Jamie Foxx. - Nico  (głos)
Will i Am. - Pedro  (głos)
George Lopez.- Rafael  (głos)
Leslie Mann. - Linda  (głos)
Rodrigo Santoro. - Tulio  (głos)



Nazwa pliku: rio 2 Dubbing PL x264 Rip by marcinc33.mkv
ID filmu: 3c9f5fed168d6e2a43cccae855b79e43

Rozmiar pliku: 1.740 GiB (186781366...

[ Zobacz cały opis... ]


Pod Mocnym Aniolem *2014* [BDRip] [x264] [FILM POLSKI]
Kategoria: Filmy » Filmy X264 » Dramat
Dodane: 26/07/2014
Rozmiar: 686.46 MB
Wstawił: marcinc33
Seed(ów): 0
Leecher(ów): 0
Pobrane: 0
Komentarzy: 0


Torrent

  • Currently 0.00/5


Premiera: 17.01.2014 - Polska, 17.01.2014 - Świat
Produkcja: Polska
Gatunek: Dramat
Reżyseria: Wojciech Smarzowski
Scenariusz: Wojciech Smarzowski




Jerzy (Robert Więckiewicz) jest pisarzem i alkoholikiem. Poznajemy go w momencie, w którym uwierzył, że może wygrać z nałogiem. Zakochuje się w młodej dziewczynie (Julia Kijowska) i wreszcie czuje, że ma po co i dla kogo żyć. Jednak nie wytrzymuje długo. Pewnego dnia idzie prosto do baru Pod Mocnym Aniołem, gdzie zaczyna pić... Wkrótce trafia na odwyk, gdzie spotyka doktora Granadę (Andrzej Grabowski), personel (m.in. Iza Kuna, Robert Wabich) i innych pacjentów (Jacek Braciak, Kinga Preis, Marian Dziędziel, Marcin Dorociński, Arkadiusz Jakubik, Lech Dyblik, Iwona Wszołkówna, Iwona Bielska, Krzysztof Kiersznowski), którzy tworzą niezwykle barwną galerię postaci. Jedną z metod leczenia jest czytanie spisanych wcześniej opowieści, z czasów kiedy się piło. Swoje historie, zabawne i niekiedy wstrząsające, opowiedzą: reżyser, ksiądz, policjant, kierowca TIR-a, farmaceutka, robotnik, fryzjerka i inni. Wszyscy piją, bo picie to nasz sport narodowy.



Robert Więckiewicz ... Jerzy
Julia Kijowska ... Ona
Adam Worono...

[ Zobacz cały opis... ]


Skubani - Free Birds *2013*[720p.BDRip.AC3.x264.m2ts] [Dubbing PL] [SZCZYKU-PS3]
Kategoria: Filmy » Filmy X264 » Komedie
Dodane: 21/05/2014
Rozmiar: 3.47 GB
Wstawił: kaszub87
Seed(ów): 64
Leecher(ów): 106
Pobrane: 181
Komentarzy: 0


Torrent

  • Currently 5.00/5

Produkcja: USA
Gatunek: Animacja, Familijny
Reżyseria: Jimmy Hayward
Scenariusz: Jimmy Hayward, Scott Mosier
Premiera: 10 stycznia 2014 (Polska) 26 września 2013 (świat)
Czas trwania: 1:31:03



Jake i Reggie pochodzą z zupełnie odmiennych indyczych środowisk – jeden jest indykiem z wyższych sfer, a drugi zee zwykłego kurnika. Będą musieli jednak przezwyciężyć dzielące ich różnice i połączyć siły, bo historia stawia przed nimi wielkie wyzwanie. Muszą cofnąć się w czasie i tak namieszać w dziejach drobiu, aby indyk odtąd jawił się nie jako największy przysmak, ale najlepszy przyjaciel człowieka.



Piotr Fronczewski
Cezary Pazura
Barbara Kałużna
Miłogost Reczek
Przemysław Bluszcz
Grzegorz Pawlak
Paweł Szczesny
Robert Czebotar


Video

Format : AVC
Format/Info : Advanced Video Codec
Format profile : High@L4.1
Format settings, ReFrames : 5 frames
Codec ID : 27
Duration : 1h 31mn 02sek
Bit rate : 4869 Kbps
Width : 1 280 pixels
Height : 690 pixels
Display aspect ratio : 2.40:1
Frame rate : 23.976 fps

Stream size : 3.66 GiB (92%)

Audio #

Format : AC-3
Format/Info : Audio Coding 3
Mode extensio...

[ Zobacz cały opis... ]


Sadysta - Captivity *2007* [DVDRip][x264][Lektor PL][maniek8902]
Kategoria: Filmy » Filmy X264 » Thriller
Dodane: 15/04/2014
Rozmiar: 1.43 GB
Wstawił: maniek8902
Seed(ów): 37
Leecher(ów): 13
Pobrane: 22
Komentarzy: 0


Torrent

  • Currently 0.00/5


Gatunek: Thriller
Reżyser: Roland Joffé
Konspekt: Larry Cohen, Joseph Tura
Obsada: Elisha Cuthbert, Daniel Gillies, Pruitt Taylor Vince, Michael Harney
Ocena: 4,8/10
Produkcja: Rosja, USA



Podczas jednego z przyjęć, znana i popularna fotomodelka Jennifer Three traci przytomność. Budzi się w piwnicy pewnego domu nieświadoma tego, co się stało. Zauważa, że nie jest sama. Za szklaną szyba spostrzega młodego mężczyznę Harry'ego. Młodzi więźniowie dochodzą do wniosku, że to porwanie. Porozumiewając się przez szklaną szybę planują ucieczkę, jednak próbując uciec wpadają w pułapkę. Porywacz prowadzi z nimi psychologiczną grę. Wydaje mu się, że kontroluje przebieg zdarzeń. Czy aby na pewno?




Cytuj:
Release Date.......: 15/04/2014
Source.............: DVD-5
Video Codec........: x264
Video Bitrate......: 2.200 Kb/s
Resolution.........: 720 x 582 (1.75
Framerate..........: 25.000 fps
Audio Codec........: MPEG Audio 2 channels
Audio Bitrate......: 320 Kbps
Language...........: Polish
Subtitles..........: N/A
Genre..............: Thriller
Runtime............: 1h 21mn
Size...............: 1.43 GiB
Encoded by.........: maniek8902



[ Zobacz cały opis... ]


The.Ultimate.Matrix.Collection.Complete.Bluray.[1080p.TrueHD.x264] [ENG]
Kategoria: Filmy » Filmy X264
Dodane: 22/02/2014
Rozmiar: 71.63 GB
Wstawił: Danulek96
Seed(ów): 0
Leecher(ów): 0
Pobrane: 0
Komentarzy: 0


Torrent

  • Currently 0.00/5


Gatunek:Akcja
produkcja:Australia,USA
premiera: 13 sierpnia 1999 (Polska) 31 marca 1999 (świat)
reżyseria:Andy Wachowski, Lana Wachowski
scenariusz: Andy Wachowski, Lana Wachowski



Neo (Keanu Reeves) jest genialnym hakerem. Pewnego dnia nawiązuje z nim kontakt tajemniczy Morfeusz (Laurence Fishburne) - człowiek, który obiecuje mu odkryć prawdę o rzeczywistości, w jakiej żyją.Prawdę o Matriksie. Prawdę o dwóch światach: prawdziwym i wygenerowanym, który ma tylko "udawać" rzeczywistość. Neo przystaje do grupy kierowanej przez Morfeusza i zaczyna dostrzegać, że ze świat, w którym żył dotychczas to fikcja. e jego życiem cały czas ktoś kierował. Kolejne stopnie wtajemniczenia stawiają przed Neo nowe pytania. Który ze światów jest prawdziwy? Czym jest Matrix i komu służy? I jaką rolę w planie Morfeusza ma do spełnienia on sam?



Keanu Reeves: Neo
Laurence Fishburne: Morfeusz
Carrie-Anne Moss: Trinity
Hugo Weaving: Agent Smith
Gloria Foster: Wyrocznia



The.Matrix.1999.Bluray.1080p.TrueHD.x264


A computer hacker learns from mysterious rebels about the true nature of his reality and his role in the war against...

[ Zobacz cały opis... ]


B?karty Wojny - Inglourious Basterds (2009) [1080p.DTS-HD.MA.AC3.BDRip.x264-gixerk9] [Lektor i Napisy PL]
Kategoria: Filmy » Filmy X264
Dodane: 22/02/2014
Rozmiar: 20.28 GB
Wstawił: kaszub87
Seed(ów): 1
Leecher(ów): 109
Pobrane: 0
Komentarzy: 0


Torrent

  • Currently 0.00/5

Bękarty Wojny - Inglourious Basterds (2009)

gatunek: Wojenny
produkcja: Niemcy, USA
premiera: 11 września 2009 (Polska) 20 maja 2009 (świat)
reżyseria: Quentin Tarantino, Eli Roth
scenariusz: Quentin Tarantino


Akcja "Bękartów Wojny" rozpoczyna się w okupowanej przez Niemców Francji, gdzie Shosanna Dreyfus (Mlanie Laurent) jest świadkiem egzekucji swojej rodziny z rozkazu nazistowskiego pułkownika Hansa Landy (Christoph Waltz).
Cudem unikając śmierci, Shosanna ucieka do Paryża, gdzie przyjmuje nową tożsamość, jako właścicielka i operatorka niewielkiego kina.

Tymczasem, gdzieś w Europie, porucznik Aldo Raine (Brad Pitt) organizuje elitarną grupę żydowskich żołnierzy, których zadaniem ma być krwawy odwet na nazistach. Nazwani „Bękartami”, ludzie Raine’a łączą swe siły z pracującą dla aliantów aktorką Bridget Von Hammersmark (Diane Kruger) i wspólnie planują zamach na kluczowych przywódców Trzeciej Rzeszy. Losy wszystkich zbiegną się w kinie, w którym także Shosanna zamierza dokonać własnej zemsty!



Brad Pitt - Porucznik Aldo Raine
Mlanie Laurent - Shosanna Dreyfus
Christoph Waltz - Pułkownik Hans Landa
Eli Roth - Sierżant Donny Do...

[ Zobacz cały opis... ]


Cz?owiek ze Stali - Man Of Steel *2013* (60 FPS) [1080p.DTS-HD.MA.7.1/AC3.BluRay.x264] [Napisy i Lektor PL]
Kategoria: Filmy » Filmy X264
Dodane: 21/02/2014
Rozmiar: 16.01 GB
Wstawił: kaszub87
Seed(ów): 21
Leecher(ów): 128
Pobrane: 277
Komentarzy: 0


Torrent

  • Currently 3.00/5

Produkcja..........: Kanada, USA, Wielka Brytania
Gatunek............: Akcja, Sci-Fi
Czas trwania.......: 132 min.
Premiera...........: 21.06.2013 - Polska, 10.06.2013 - wiat
Reżyseria..........: Zack Snyder
Scenariusz.........: David S. Goyer, Christopher Nolan
Obsada.............: Henry Cavill, Amy Adams, Michael Shannon, Diane Lane, Russell Crowe

Młody chłopiec dowiaduje się, że jest nie z tej ziemi i posiada nadprzyrodzone moce. Jako młody mężczyzna podróżuje, aby dowiedzieć się, skąd pochodzi i jaka jest jego misja. Ukryty w nim bohater musi się ujawnić, jeśli ma ocalić świat przed zagładą i stać się symbolem nadziei całej ludzkości.

* Henry Cavill ... Clark Kent / Superman
* Russell Crowe ... Jor-El
* Amy Adams ... Lois Lane
* Kevin Costner ... Jonathan Kent
* Michael Shannon ... Gen. Zod

Video

Format : AVC
Format/Info : Advanced Video Codec
Format profile : High@L4.2
Format settings, CABAC : Yes
Format settings, ReFrames : 4 frames
Codec ID : V_MPEG4/ISO/AVC
Duration : 2h 23mn
Bit rate : 12.8 Mbps
Width : 1 920 pixels
Height : 800 pixels
Display aspect ratio : 2.40:1
Frame rate : 59.940 fps
Color space :...

[ Zobacz cały opis... ]


Indiana Jones i Kr?lestwo Kryszta?owej Czaszki - Indiana Jones and the Kingdom of the Crystal Skull *2008* [1080p.DTS-HD.MA.AC3.BDRip.x264-gixerk9] [Lektor i Napisy PL]
Kategoria: Filmy » Filmy X264
Dodane: 20/02/2014
Rozmiar: 15.53 GB
Wstawił: kaszub87
Seed(ów): 2
Leecher(ów): 85
Pobrane: 0
Komentarzy: 0


Torrent

  • Currently 0.00/5


Indiana Jones i Królestwo Kryształowej Czaszki - Indiana Jones and the Kingdom of the Crystal Skull (2008 )

gatunek: Przygodowy
produkcja: USA
premiera: 22 maja 2008 (Polska) 18 maja 2008 (świat)
reżyseria: Steven Spielberg
scenariusz: David Koepp



Najnowsza seria przygód z jego udziałem rozpoczyna się na pustynnym południowym-wschodzie w 1957 roku - w samym apogeum Zimnej Wojny. Indiana i jego towarzysz Mac (Ray Winstone) właśnie wymknęli się z rąk sowieckich agentów i wracają do domu. Wkrótce potem Indiana Jones dowiaduje się od dziekana swojej macierzystej uczelni - Marshall College - i bliskiego przyjaciela (Jim Broadbent), że jego ostatnie wyczyny nie spodobały się przedstawicielom rządu, którzy naciskają na władze uniwersytetu, aby te usunęły profesora Jonesa z uczelni. Wyjeżdżając z miasta, Indiana spotyka zbuntowanego młodego człowieka Mutta (Shia LaBeouf), który mimo tego, że żywi do profesora sporą urazę, ma też propozycję, która może spodobać się żądnemu przygód archeologowi: jeśli pomoże on Muttowi w pewnej osobistej sprawie, chłopak naprowadzi go na ślad Kryształowej Czaszki z Aktor, legendarnego przedmiotu fascynacji, przesądów i lęków. Indiana i Mutt wyruszają do najbardziej odległych z...

[ Zobacz cały opis... ]


Indiana Jones i Ostatnia Krucjata - Indiana Jones and the Last Crusade (1989) [1080p.DTS-HD.MA.AC3.BDRip.x264-gixerk9] [Lektor i Napisy PL]
Kategoria: Filmy » Filmy X264
Dodane: 19/02/2014
Rozmiar: 16.41 GB
Wstawił: kaszub87
Seed(ów): 1
Leecher(ów): 1
Pobrane: 0
Komentarzy: 0


Torrent

  • Currently 0.00/5

Indiana Jones i Ostatnia Krucjata - Indiana Jones and the Last Crusade (1989)

gatunek: Przygodowy
produkcja: USA
premiera: 31 grudnia 1990 (Polska) 24 maja 1989 (świat)
reżyseria: Steven Spielberg
scenariusz: Jeffrey Boam


Nie ma nic bardziej ekscytującego niż staranie się dotrzymać kroku Jonesom w filmie "Indiana Jones i ostatnia krucjata". Nazistowscy wrogowie Indy'ego powracają i porywają mu ojca, profesora Henry'ego Jonesa (Sean Connery), by pomógł odnaleć więtego Grala. Od zagubionych miast, po skarby templariuszy i podziemia Wenecji, odkryj ródło wiecznego życia i największą ekranową przygodę Indiany Jonesa!



Harrison Ford - Indiana Jones
Sean Connery - Profesor Henry Jones
Denholm Elliott - Dr Marcus Brody
Alison Doody - Dr Elsa Schneider
John Rhys-Davies - Sallah
Julian Glover - Walter Donovan
River Phoenix - Młody Indiana Jones
Kevork Malikyan - Kazim

Screeny:

http://i.imgur.com/ZgkaybF.jpg
http://i.imgur.com/sRcDtjy.jpg
http://i.imgur.com/kpeRz45.jpg
http://i.imgur.com/PFCiHo0.jpg
http://i.imgur.com/Fo2Fcme.jpg


Format : Matroska
Format version : Version 2
File size : 16.4 GiB
Duration : 2h 6mn
...

[ Zobacz cały opis... ]


Indiana Jones i ?wiątynia Zag?ady - Indiana Jones and the Temple of Doom *1984* [1080p.DTS-HD.MA.AC3.BDRip.x264-gixerk9] [Lektor i Napisy PL]
Kategoria: Filmy » Filmy X264
Dodane: 18/02/2014
Rozmiar: 15.27 GB
Wstawił: kaszub87
Seed(ów): 1
Leecher(ów): 116
Pobrane: 0
Komentarzy: 0


Torrent

  • Currently 0.00/5


Indiana Jones i wiątynia Zagłady - Indiana Jones and the Temple of Doom (1984)

gatunek: Przygodowy
produkcja: USA
premiera: 31 grudnia 1990 (Polska) 23 maja 1984 (świat)
reżyseria: Steven Spielberg
scenariusz: Willard Huyck, Gloria Katz



Rok 1935. Indiana Jones finalizuje transakcję z szefem chińskiego gangu. Niestety zamiast obiecanej zapłaty za wyświadczone usługi zostaje otruty. Udaje mu się jednak uratować dzięki Willie Scott. Uciekając przed ścigającą ich chińską mafią, przypadkowo trafiają do Indii, gdzie zostają zatrzymani w jednej z wiosek zagubionych w dżungli. Sędziwy szaman prowadzi ich do naczelnika. Ten obiecuje im transport do Delhi pod warunkiem, że wcześniej archeolog odnajdzie święty kamień skradziony przez wyznawców krwiożerczej bogini Kali.



Harrison Ford - Indiana Jones
Kate Capshaw - Wilhelmina "Willie" Scott
Amrish Puri - Mola Ram
Roshan Seth - Chattar Lal
Philip Stone - Kapitan Phillip Blumburtt
Roy Chiao - Lao Che
Jonathan Ke Quan - Wan "Short Round" Li
David Yip - Wu Han

Screeny:

http://i.imgur.com/Mzx3Ryg.jpg
http://i.imgur.com/45Cdtfe.jpg
http://i.imgur.com/UTHOByc.jpg
http://i.imgur.com/J7kku9D.jpg
http://i.imgur.com/e1noAa...

[ Zobacz cały opis... ]


Indiana Jones: Poszukiwacze Zaginionej Arki - Raiders of the Lost Ark (1981) [1080p.DTS-HD.MA.AC3.BDrip.x264-gixerk9] [Lektor i Napisy PL]
Kategoria: Filmy » Filmy X264
Dodane: 17/02/2014
Rozmiar: 14.48 GB
Wstawił: kaszub87
Seed(ów): 1
Leecher(ów): 184
Pobrane: 0
Komentarzy: 0


Torrent

  • Currently 0.00/5

Poszukiwacze Zaginionej Arki - Raiders of the Lost Ark (1981)

gatunek: Przygodowy
produkcja: USA
premiera: 12 czerwca 1981 (świat)
reżyseria: Steven Spielberg
scenariusz: Lawrence Kasdan

Rok 1936. Archeolog Indiana Jones (Harrison Ford) otrzymuje tajne zadanie od służb specjalnych. Według danych wywiadu niemieccy naukowcy odkryli na pustyni starożytne miasto, gdzie w podziemiach świątyni ukryta jest Arka Przymierza. By nie dopuścić do przejęcia cennego zabytku przez nazistów, Jones wyrusza do Egiptu. Podróżując przez Nepal, doktor spotyka swoją dawną sympatię Marion (Karen Allen), której ojciec - także archeolog - odnalazł laskę Mojżesza. Tam zapisane są wskazówki niezbędne do odnalezienia Arki. Niebawem Indy wraz z dziewczyną przybywa do Kairu. Na miejscu badacz przekonuje się, że Niemcy są już bliscy sukcesu i zrobią wszystko, by wyeliminować rywali.

Harrison Ford - Indiana Jones
Karen Allen - Marion Ravenwood
Paul Freeman - Doktor Ren Belloq
Ronald Lacey - Major Arnold Toht
John Rhys-Davies - Sallah
Alfred Molina - Satipo
Denholm Elliott - Doktor Marcus Brody
Wolf Kahler - Pułkownik Dietrich

Screeny:

http://i.imgur.com/KyNIwj4.jpg
http://i.imgur.com/yh4eM...

[ Zobacz cały opis... ]


Grawitacja - Gravity (2013) [1080p.DTS-HD.MA.AC3.BluRay.x264-gixerk9] [Lektor i Napisy PL]
Kategoria: Filmy » Filmy X264
Dodane: 17/02/2014
Rozmiar: 10.37 GB
Wstawił: kaszub87
Seed(ów): 77
Leecher(ów): 252
Pobrane: 182
Komentarzy: 0


Torrent

  • Currently 0.00/5

Grawitacja - Gravity (2013)

gatunek: Dramat, Sci-Fi
produkcja: USA, Wielka Brytania
premiera: 11 padziernika 2013 (Polska) 28 sierpnia 2013 (świat)
reżyseria: Alfonso Cuarón
scenariusz: Jons Cuarón, Alfonso Cuarón


Dr Ryan Stone (Sandra Bullock) jest znakomitym inżynierem medycznym, wraz z astronautą-weteranem Mattem Kowalskim (George Clooney) odbywającym swoją pierwszą misję na statku kosmicznym. Niestety, w czasie pozornie rutynowego spaceru w przestrzeni kosmicznej następuje katastrofa. Statek zostaje zniszczony, pozostawiając Stone i Kowalskiego zupełnie samych - przywiązanych jedynie do siebie, krążących w ciemności. Ogłuszająca cisza mówi, że utracili wszelki kontakt z Ziemią? i jakąkolwiek szansę na ratunek. Strach zamienia się w panikę, każdy oddech pomniejsza i tak niewielką ilość tlenu, jaka im pozostała. A jedyną drogą do domu może okazać się jeszcze większe pogrążenie się w przerażającej nieskończoności kosmosu.



Sandra Bullock - Ryan Stone
George Clooney -Matt Kowalsky
Ed Harris - Dyrektor kontroli misji (głos)
Orto Ignatiussen - Aningaaq (głos)
Paul Sharma - Shariff (głos)
Amy Warren - Kapitan w Explorerze (głos)
Basher Savage - Ka...

[ Zobacz cały opis... ]


Terminator 2: Dzie? sądu - Terminator 2: Judgment Day *1991* (60 FPS) [1080p.DTS/AC3.BluRay.x264] [Napisy PL]
Kategoria: Filmy » Filmy X264
Dodane: 17/02/2014
Rozmiar: 17.86 GB
Wstawił: kaszub87
Seed(ów): 6
Leecher(ów): 25
Pobrane: 168
Komentarzy: 0


Torrent

  • Currently 0.00/5

gatunek: Akcja,Sci-Fi
produkcja: Francja,USA
premiera: 5 maja 1992 (Polska) 1 lipca 1991 (świat)
reżyseria: James Cameron
scenariusz: James Cameron,William Wisher Jr.


T-1000 (Robert Patrick), prototyp robota mogącego zmieniać kształt, zostaje wysłany w przeszłość, aby zgładzić młodego Johnna Connora (Edward Furlong). John z przyszłości, wiedząc o tym, wysyła przeprogramowanego Terminatora (Arnold Schwarzenegger) - robota, który ma bronić chłopca.


Arnold Schwarzenegger – terminator (model T-800)
Linda Hamilton – Sarah Connor
Edward Furlong – John Connor
Robert Patrick – terminator (model T-1000)
Earl Boen – dr Peter Silberman
Joe Morton – dr Miles Bennett Dyson
S. Epatha Merkerson – Tarissa Dyson
Leslie Hamilton Gearren – odbicie w lustrze podczas sceny wyciągania procesora z głowy T-800; w scenie snu wciela się w "zaniepokojoną" Sarę za siatką placu zabaw; terminator (model T-1000) w hucie podczas wcielenia się T-1000 w Sarę


Video

Format : AVC
Format/Info : Advanced Video Codec
Format profile : High@L4.1
Format settings, CABAC : Yes
Format settings, ReFrames : 5 ...

[ Zobacz cały opis... ]


Thor: Mroczny ?wiat - Thor: The Dark World *2013*[1080p.BDRip.x264.AC3.m2ts] [Napisy PL]
Kategoria: Filmy » Filmy X264
Dodane: 11/02/2014
Rozmiar: 7.09 GB
Wstawił: kaszub87
Seed(ów): 122
Leecher(ów): 63
Pobrane: 1565
Komentarzy: 0


Torrent

  • Currently 0.00/5

gatunek: Fantasy,Przygodowy
produkcja: USA
premiera: 8 listopada 2013 (Polska) 30 padziernika 2013 (świat)
reżyseria: Alan Taylor
scenariusz: Christopher Yost,Christopher Markus,Stephen McFeely


Chris Hemsworth - Thor
Natalie Portman - Jane Foster
Tom Hiddleston - Loki
Anthony Hopkins - Odyn
Christopher Eccleston - Malekith
Jaimie Alexander - Sif


"Thor: Mroczny świat" to kontynuacja przygód Thora, który nie ustaje w walce o ocalenie Ziemi i pozostałych Ośmiu Królestw przed tajemniczym, starszym niż wszechświat wrogiem. Po wydarzeniach z filmów "Thor" i "Avengers", Thor próbuje zaprowadzić porządek w kosmosie, ale starożytna rasa, dowodzona przez mściwego Malekitha powraca, by zepchnąć wszechświat w ciemność. Stając do walki z wrogiem, którego nie może pokonać nawet Asgard pod wodzą Odyna, superbohater musi udać się na niebezpieczną wyprawę, podczas której ponownie zjednoczy siły z Jane Foster i poświęci wszystko, by ratować nas wszystkich.



Video

Format : AVC
Format/Info : Advanced Video Codec
Format profile : High@L4.1
Format settings, CABAC : Yes
Format settings, ReFrames : 2 frames
Format settings, ...

[ Zobacz cały opis... ]


Ta?czący z wilkami - Dances with Wolves *1990* [BluRay] [720p] [DTS.AC3] [x264-LLO] [Lektor PL]
Kategoria: Filmy » Filmy X264
Dodane: 09/02/2014
Rozmiar: 13.74 GB
Wstawił: Zbyszek2874
Seed(ów): 8
Leecher(ów): 8
Pobrane: 82
Komentarzy: 0


Torrent

  • Currently 0.00/5


[b][i]gatunek: Western
produkcja: USA, Wielka Brytania
premiera: 31 grudnia 1990 (Polska) 19 padziernika 1990 (świat)
reżyseria: Kevin Costner
scenariusz: Michael Blake
Film web:7,8/10
IMDB:Ratings: 8,0/10



Porucznik Dunbar (Kevin Costner) zostaje zesłany przez swojego zwierzchnika do odległego fortu w Ameryce Północnej. W samotności doprowadza go do stanu użyteczności, zaprzyjania się z wilkiem, który wciąż przychodzi zaciekawiony obecnością człowieka oraz poznaje Indian. Na początku rdzenni mieszkańcy tych ziem podchodzą do Dunbara nieufnie, ale z czasem porucznik zyskuje coraz większą aprobatę.



Kevin Costner ... Lieutenant Dunbar
Mary McDonnell ... Stands With A Fist
Graham Greene ... Kicking Bird
Rodney A. Grant ... Wind In His Hair
Floyd 'Red Crow' Westerman ... Ten Bears (as Floyd Red Crow Westerman)
Tantoo Cardinal ... Black Shawl
Robert Pastorelli ... Timmons
Charles Rocket ... Lieutenant Elgin
Maury Chaykin ... Major Fambrough



Format : Matroska
Format version : Version 2
File size : 13.7 GiB
Duration : 3h 56mn
Overall bit rate : 8 309 Kbps
Movie name : LLO
Encoded dat...

[ Zobacz cały opis... ]


Kapitan Phillips - Captain Phillips *2013* [1080p.DTS-HD.MA.AC3.BluRay.x264-gixerk9] [Lektor i Napisy PL]
Kategoria: Filmy » Filmy X264
Dodane: 07/02/2014
Rozmiar: 15.98 GB
Wstawił: Zbyszek2874
Seed(ów): 2
Leecher(ów): 85
Pobrane: 0
Komentarzy: 0


Torrent

  • Currently 0.00/5


[b][i]gatunek: Biograficzny, Dramat
produkcja: USA
premiera: 8 listopada 2013 (Polska) 27 września 2013 (świat)
reżyseria: Paul Greengrass
scenariusz: Billy Ray



"Kapitan Phillips" to wielowarstwowy obraz porwania przez somalijskich piratów amerykańskiego kontenerowca Maersk Alabama, do którego doszło w 2009 roku. Dzięki charakterystycznemu spojrzeniu reżysera Paula Greengrassa, film jest jednocześnie przyspieszającym bicie serca thrillerem i złożonym portretem przedstawiającym skutki globalizacji. "Kapitan Phillips" skupia się na relacji kapitana kontenerowca Richarda Phillipsa (w tej roli dwukrotny zdobywca nagrody Akademii Tom Hanks) i dowódcy piratów Muse'a (Barkhad Abdi), który bierze go jako zakładnika. Kiedy Muse i jego ludzie obierają za cel nieuzbrojony statek Phillipsa, między mężczyznami dochodzi do starcia. W odległości 145 mil od wybrzeża Somalii zostają oni pozostawieni na pastwę sił, nad którymi nie mają kontroli.



Tom Hanks - Kapitan Richard Phillips
Barkhad Abdi - Muse
Barkhad Abdirahman - Bilal
Faysal Ahmed - Najee
Mahat M. Ali - Elmi
Michael Chernus - Shane Murphy
Catherine Keener - Andrea Phillips
David Warshofsky - Mike Perry

[img]h...

[ Zobacz cały opis... ]


Przygoda na Antarktydzie - Eight Below *2006* [BDRemux] [1080p] [MPEG-2.DD5.1-HighCode] [Napisy PL]
Kategoria: Filmy » Filmy X264
Dodane: 07/02/2014
Rozmiar: 16.63 GB
Wstawił: Zbyszek2874
Seed(ów): 0
Leecher(ów): 0
Pobrane: 0
Komentarzy: 0


Torrent

  • Currently 0.00/5


[b][i]gatunek: Dramat Przygodowy
produkcja: USA
premiera: 17 lutego 2006 (świat)
reżyseria: Frank Marshall
scenariusz: Mike Rich David DiGilio



"Eight Below" to historia zainspirowana prawdziwymi wydarzeniami. Film opowiada historię członków naukowej ekspedycji na Antarktydę - Jerry'ego Sheparda, jego byłej dziewczyny, najlepszego przyjaciela Coopera oraz geologa trafiającego tam w poszukiwaniu meteorytu. Prawdziwymi bohaterami tego filmu jest jednak tak na prawdę 8 psów, które najpierw ratują geologowi życie a potem z powodu wielkiej burzy i związanej z nią ewakuacji są pozostawione samym sobie na śmierć.



Paul Walker...Gerry Shepherd
Bruce Greenwood...Davis McClaren
Moon Bloodgood...Katie
Jason Biggs...Charlie Cooper
Gerard Plunkett...Dr Andy Harrison
August Schellenberg...Mindo
Wendy Crewson...Eve McClaren
Belinda Metz...Rosemary



Source-------- EU BD
Released------ 2013/12/24
Format-------- Matroska/MPEG2
File size----- 16.6 GB
Length-------- 2:00:21
Video Bit rate 18.6 (max 28 MBps)
Resolution---- 1920/1080 (AR: 2.40:1)
Frame rate---- 23.976 fps
Audio--------- ENG DD 5.1 @640 (BD didn't have other ENG track)...

[ Zobacz cały opis... ]


Ultimatum Bourne'a - The Bourne Ultimatum *2007* [1080p.DTS-HD.MA.BluRay.x264][Lektor i Napisy PL]
Kategoria: Filmy » Filmy X264
Dodane: 05/02/2014
Rozmiar: 14.90 GB
Wstawił: kaszub87
Seed(ów): 12
Leecher(ów): 79
Pobrane: 56
Komentarzy: 0


Torrent

  • Currently 0.00/5

Ultimatum Bourne'a - The Bourne Ultimatum (2007)

gatunek: Sensacyjny
produkcja: Niemcy, USA
premiera: 7 września 2007 (Polska) 25 lipca 2007 (świat)
reżyseria: Paul Greengrass
scenariusz: Tom Stoppard, Tony Gilroy, George Nolfi, Scott Z. Burns

Kontynuacja losów Jasona Bourne'a - byłego tajnego agenta CIA. Okazuje się, że program Treadstone został zmodyfikowany i przemianowany na Black Briar, podlegający amerykańskiemu Ministerstwu Obrony. Agencja odcięła się od swojej niechlubnej przeszłości, jednak wciąż obawia się zagrożenia ze strony Bourne'a, postanawia więc go zlikwidować. Tymczasem Bourne'a prześladują niejasne wspomnienia z jego przeszłości sprzed zaniku pamięci. Ucieczka przed poprzednim życiem okazuje się być niemożliwa, dlatego Bourne postanawia wrócić do początku i dowiedzieć, kto i po co go stworzył. Podróżując przez Moskwę, Berlin, Londyn, Madryt, dotrze w końcu tam, gdzie wszystko się zaczęło i musi się skończyć - do Nowego Jorku.

Obsada:

Matt Damon - Jason Bourne
Julia Stiles - Nicky Parsons
David Strathairn - Noah Vosen
Scott Glenn - Ezra Kramer
Paddy Considine - Simon Ross
dgar Ramrez - Paz
Albert Finney - Dr Albert Hirsch
Joan Allen - Pamela Landy

Screeny:

http://i.imgur.com/8a9ohmq.jpg
http://i.imgur.com/gXnnrJU.jpg
http://i.imgu...

[ Zobacz cały opis... ]


Krucjata Bourne'a - The Bourne Supremacy *2004* [BluRay] [x264] [1080p] [DTS-HD.MA] [Lektor i Napisy PL]
Kategoria: Filmy » Filmy X264
Dodane: 03/02/2014
Rozmiar: 14.27 GB
Wstawił: kaszub87
Seed(ów): 16
Leecher(ów): 79
Pobrane: 60
Komentarzy: 0


Torrent

  • Currently 0.00/5

Krucjata Bourne'a - The Bourne Supremacy (2004)

gatunek: Sensacyjny
produkcja: Niemcy, USA
premiera: 3 września 2004 (Polska) 15 lipca 2004 (świat)
reżyseria: Paul Greengrass
scenariusz: Tony Gilroy, Brian Helgeland


W roku 2002 widzowie w kinach na całym świecie poznali Jasona Bourne'a - bohatera sfilmowanego bestsellera Roberta Ludluma "Tożsamość Bourne'a". Teraz Jason Bourne powraca w drugiej części - "Krucjata Bourne'a". Dwa lata temu Bourne'owi (Matt Damon) wydawało się, że zdołał uciec przed przeszłością. Wraz z Marią (Franka Potente) przenosili się z miasta do miasta, ścigani urywkami wspomnień, których nie rozumieli. Uciekali przed nocnymi koszmarami, których znaczenia nie znali. Przypadkowe spojrzenie nieznajomego, pomyłkowy telefon - w każdej sekundzie, bez ostrzeżenia przeszłość mogła wrócić. I ta przeszłość powróciła. Ale... Bourne został wyszkolony na zawodowego zabójcę. Ci, którzy go ścigali, powinni byli zostawić go w spokoju. Przekonają się o tym.



Matt Damon - Jason Bourne
Franka Potente - Marie Helena Kreutz
Brian Cox - Ward Abbott
Julia Stiles - Nicky
Karl Urban - Kirill
Gabriel Mann - Zorn
Joan Allen - Pamela Landy
Marton Csokas -...

[ Zobacz cały opis... ]


To?samo?? Bourne'a - The Bourne Identity *2002* [Blu-Ray] [x264] [1080p] [DTS-HD.MA.BluRay] [Lektor i Napisy PL]
Kategoria: Filmy » Filmy X264
Dodane: 03/02/2014
Rozmiar: 15.80 GB
Wstawił: kaszub87
Seed(ów): 10
Leecher(ów): 100
Pobrane: 9
Komentarzy: 0


Torrent

  • Currently 0.00/5

Tożsamość Bourne'a - The Bourne Identity (2002)

gatunek: Sensacyjny
produkcja: Czechy, Niemcy, USA
premiera: 27 września 2002 (Polska) 6 czerwca 2002 (świat)
reżyseria: Doug Liman
scenariusz: Tony Gilroy, W. Blake Herron






Nowa Ekranizacja kultowej powieści Roberta Ludluma. Jason Bourne (Matt Damon) zostaje wyłowiony z morza. Po przebudzeniu nie pamięta kim jest i co się stało. Z czasem zaczyna odkrywać w sobie różne zdolności, o których nie zdawał sobie nawet sprawy. Wkrótce staje się zwierzyną, która, aby mogła przeżyć musi się najpierw dowiedzieć kim jest i z kim mu przyszło walczyć.





Matt Damon - Jason Bourne
Franka Potente - Marie Helena Kreutz
Chris Cooper - Conklin
Clive Owen - Profesor, zabójca
Brian Cox - Ward Abbott
Adewale Akinnuoye-Agbaje - Nykwana Wombosi
Julia Stiles - Nicolette
Gabriel Mann - Zor





Format : Matroska
Format version : Version 2
File size : 15.8 GiB
Duration : 1h 58mn
Overall bit rate mode : Variable
Overall bit rate : 19.1 Mbps
Movie name : The Bourne Identity (2002) (gixerk9)
Encoded date : UTC 2014-02-02 11:06:28
Writing application : mkvmerge v5.7.0 ('The W...

[ Zobacz cały opis... ]


Riddick *2013* [1080p] [BluRay] [x264] [Napisy PL]
Kategoria: Filmy » Filmy X264
Dodane: 03/02/2014
Rozmiar: 7.82 GB
Wstawił: kaszub87
Seed(ów): 30
Leecher(ów): 22
Pobrane: 295
Komentarzy: 0


Torrent

  • Currently 0.00/5

Produkcja: USA, Wielka Brytania
Gatunek: Akcja, Sci-Fi
Reżyseria: David Twohy
Scenariusz: David Twohy


Zdradzony przez przyjaciół i pozostawiony na obcej planecie Riddick musi przetrwać w walce ze śmiertelnie gronymi wrogami. Staje się jeszcze potężniejszy i niebezpieczniejszy niż kiedykolwiek wcześniej.owcy nagród ścigający go przez całą galaktykę staną się jedynie pionkami w grze, dzięki której Riddick rozpocznie odsiecz swojej planety, stojącej w obliczu zagłady.


Vin Diesel - Richard B.Riddick
Karl Urban - Vaako
Katee Sackhoff - Dahl
Dave Bautista - Diaz
Nolan Gerard Funk - Luna


Video

Format : AVC
Format/Info : Advanced Video Codec
Format profile : High@L4.2
Format settings, CABAC : Yes
Format settings, ReFrames : 4 frames
Codec ID : V_MPEG4/ISO/AVC
Duration : 2h 6mn
Bit rate : 7 143 Kbps
Width : 1 920 pixels
Height : 800 pixels
Display aspect ratio : 2.40:1
Frame rate : 59.940 fps
Color space : YUV
Chroma subsampling : 4:2:0
Bit depth : 8 bits
Scan type : Progressive
Bits/(Pixel*Frame) : 0.078
Stream size : 6.33 GiB (81%)
Language : English
Default : Yes
Forced : No

Audio

Format : DTS
Format...

[ Zobacz cały opis... ]


Disco robaczki (Disco ormene) *2008* [1080p.mini.HD.x264.AC3.J-23stan] [Dubbing PL]
Kategoria: Filmy » Filmy X264
Dodane: 01/02/2014
Rozmiar: 1.20 GB
Wstawił: Danulek96
Seed(ów): 0
Leecher(ów): 0
Pobrane: 0
Komentarzy: 0


Torrent

  • Currently 0.00/5


Gatunek: animacja, familijny
Reżyseria: Thomas Borch Nielsen
Premiery kinowe: Polska 21 maj 2010
wiat 07 wrzesień 200
2008, Dania, Niemcy



Roztańczone i rozśpiewane robaczki obdarzone ludzkimi cechami z pewnością przypadną do gustu zarówno młodszej, jak i starszej widowni. Rodziców rozbawi inteligentny, pełen ironii humor znany z serii o Shreku oraz genialne wykorzystanie największych przebojów disco. Dzieci pokochają pełzających bohaterów za wyjątkowo zabawne przygody. Obok komicznych i trzymających w napięciu perypetii sympatycznych bohaterów, nieocenionym walorem tego filmu jest muzyka. Widzowie usłyszą hity lat 80., takie jak ?Disco Inferno?, ?YMCA?, ?I Will Survive? w całkowicie nowych, współczesnych wykonaniach.



Marcin Hycnar - Bogdan
Barbara Kałużna - Gocha
Ewa Kasprzyk - Matka
Tomasz Karolak - Nerwal
Zbigniew Wodecki - Edward Czerw
Anna Mucha - Muszka
Tomasz Steciuk - Tytus
Agnieszka Matysiak - Kadrowa Danuta
Krzysztof Dracz - Tato "Funky" Wacek
Ksawery Jasieński - Lektor
Jarosław Boberek - Gnojak
Miłogost Reczek - Pastewny
Wojciech Paszkowski - Prezenter
Tomasz Bednarek - Sługa Czerwa



Naz...

[ Zobacz cały opis... ]


No i co,doktorku? - What\'s Up, Doc *1972* [BDRemus] [1080p.VC-1] [DTS-HD.MA] [Napisy PL]
Kategoria: Filmy » Filmy X264
Dodane: 31/01/2014
Rozmiar: 14.34 GB
Wstawił: Zbyszek2874
Seed(ów): 0
Leecher(ów): 0
Pobrane: 0
Komentarzy: 0


Torrent

  • Currently 0.00/5


gatunek: Komedia
produkcja: USA
premiera: 9 marca 1972 (świat)
reżyseria: Peter Bogdanovich
scenariusz: Buck Henry,Robert Benton,David Newman



Howard Bannister przybywa do San Francisco ze swoją narzeczoną, Eunice, aby ubiegać się o stypendium z muzykologii. Poznaje tam tajemniczą kobietę, która okazuje się \\\"siać spustoszenie i chaos gdziekolwiek się pojawi\\\". Do tego dochodzą sprawy zamienionego bagażu, grupy agentów rządowych, skradzionej biżuterii, i kilka ciekawych zwrotów fabuły.



Barbra Streisand Barbra Streisand ... Judy Maxwell
Ryan O\\\'Neal ... Howard Bannister
Madeline Kahn ... Eunice Burns
Kenneth Mars ... Hugh Simon
Austin Pendleton ... Frederick Larrabee
Michael Murphy ... Mr. Smith



Source-------- US BD
Released------ 2013/01/01
Format-------- Matroska/VC-1
File size----- 14.3 GB
Length-------- 1:33:50
Video Bit rate ~20.8 MBps
Resolution---- 1920/1080 (AR 16/9)
Frame rate---- 23.976 fps
Audio--------- ENG DTS-HD MA 1.0 @ ~970 KBps
Subtitles .ass Eng & sdh, Fre, Ger, Hun, Pol, Pt-br, Rom, Rus, Spa, Swe, Tur
Encoder------- HighCode

[ Zobacz cały opis... ]


Predator *1987* (60 FPS) [720p.DTS/AC3.BluRay.x264] [Napisy i Lektor PL]
Kategoria: Filmy » Filmy X264
Dodane: 16/01/2014
Rozmiar: 8.09 GB
Wstawił: kaszub87
Seed(ów): 9
Leecher(ów): 10
Pobrane: 700
Komentarzy: 0


Torrent

  • Currently 0.00/5


produkcja: USA
gatunek: Akcja, Sci-Fi
data premiery: 1987-06-12 (wiat)
reżyseria John McTiernan
scenariusz Jim Thomas, John Thomas
zdjęcia Donald McAlpine
muzyka Alan Silvestri
czas trwania: 107


W południowoamerykańskiej dżungli spadł helikopter z amerykańskim ministrem. Zadanie odszukania go i uwolnienia z rąk partyzantów otrzymuje niewielki oddział, którym dowodzi major Dutch Schaeffer. Dołącza do nich również agent CIA, Dillon. W dżungli okazuje się, że minister to blef, tak naprawdę CIA chce odnaleć zaginionych doradców wojskowych, którzy przygotowywali operację contras. Atak na obóz partyzancki dokonany z zaskoczenia w brawurowym stylu nie przynosi uwolnienia poszukiwanych, lecz ujawnia straszne, odarte ze skóry zwłoki. Okrucieństwo tej śmierci przeraża i szokuje nawet tak doświadczonych komandosów. Z wolna dżungla wokół nich zaczyna przypominać klatkę bez drzwi. Oto zaczyna ich atakować \\\"drapieżca\\\" z kosmosu.




Arnold Schwarzenegger :Major Alan \\\'Dutch\\\' Schaeffer
Carl Weathers :Major George Dillon
Elpidia Carrillo :Anna
Bill Duke :Sierżant \\\'Mac\\\' Eliot
Jesse Ventura :Blain
Sonny Landham :Billy Sole
Richard Chaves Poncho Ramirez
R...

[ Zobacz cały opis... ]


Nieko?cząca si? opowie?? - The Neverending Story *1984* [1080p.BluRay.DTS.AC3.x264][Lektor PL]
Kategoria: Filmy » Filmy X264
Dodane: 15/12/2013
Rozmiar: 8.91 GB
Wstawił: kaszub87
Seed(ów): 12
Leecher(ów): 4
Pobrane: 349
Komentarzy: 0


Torrent

  • Currently 2.00/5


gatunek: Fantasy, Familijny, Baśń
produkcja: USA, RFN
premiera: 6 kwietnia 1984 (świat)
reżyseria: Wolfgang Petersen
scenariusz: Wolfgang Petersen, Herman Weigel





Mały chłopiec po śmierci matki zamyka się w sobie. Zaczyna mieć kłopoty w szkole, nie potrafi znaleć wspólnego języka ze swoim ojcem. Pewnego dnia, uciekając przed prześladującymi go starszymi chłopcami, Bastian trafia do pewnej księgarni, skąd wykrada (właściwie to jedynie pożycza) tajemniczą książkę, dzięki której przeżyje najwspanialszą przygodę w swoim życiu. Nie jest to bowiem zwykła książka, ale pełna magii brama do innego świata. Dzięki niej Bastian przenosi się w krainę wyobrani, której właśnie grozi zagłada... Mały chłopiec okaże się wkrótce jedyną osobą, która może uratować piękną księżniczkę...



Barret Oliver - Bastian Bux
Noah Hathaway - Atreyu
Tami Stronach - Cesarzowa
Alan Oppenheimer - Pożeracz skał / Smok Falkor / G\\\'mork (głos) (narrator)
Gerald McRaney - Ojciec Bastiana
Sydney Bromley - Engywook
Deep Roy - Teeny Weeny
Thomas Hill - Carl Conrad Coreander



General

Format : Matroska
Format v...

[ Zobacz cały opis... ]


Turbo *2013* [1080p] [BluRay] [AC3] [x264-LTS] [Dubbing PL]
Kategoria: Filmy » Filmy X264
Dodane: 14/12/2013
Rozmiar: 6.66 GB
Wstawił: Zbyszek2874
Seed(ów): 12
Leecher(ów): 2
Pobrane: 331
Komentarzy: 0


Torrent

  • Currently 0.00/5


Tytuł: Turbo
====================

Ocena: IMDB - 6.4/10 (22.691), Filmweb - 6.7/10 (2.810)
Produkcja: USA
Gatunek: Animacja, Familijny, Komedia
Premiera: 27.09.2013 - Polska , 17.07.2013 - wiat
Czas Trwania: 95 Min.
Reżyseria: David Soren
Scenariusz: Darren LemkeDavid SorenRobert D. Siegel




Komedia animowana w polskiej wersji językowej, zrealizowana w studio Dreamworks Animation, w którym powstały takie przeboje, jak Shrek i Madagaskar. Niesamowite przygody ślimaka ogrodowego, który marzy, by zostać najszybszym ślimakiem na świecie, a dzięki niezwykłemu przypadkowi ma szanse zrealizować swoje pragnienia.



(Polski Dubbing)

Antoni Pawlicki ... Turbo
Jarosław Boberek ... Czet
Grzegorz Małecki ... Tito
Andrzej Blumenfeld ... Bicz




Format : Matroska at 9.958 Kb/s
Length : 6,66 GB for 1h 35 min. 40s 861ms

Video #0 : AVC at 9.509 Kb/s
Aspect : 1920 x 816 (2.353) at 23.976 fps

Audio #0 : AC-3 at 448 Kb/s
Infos : 6 kanałów, 48,0 KHz


Source V/A: CrEwSaDe | BD (thx !)


[ Zobacz cały opis... ]


Hobbit: Niezwyk?a podr?? - The Hobbit: An Unexpected Journey - Extented *2013* [720p] [DTS- HD MA] [7.1-AC3] [BluRay] [ x264] [Napisy i Lektor PL] [SZCZYKU]
Kategoria: Filmy » Filmy X264
Dodane: 29/11/2013
Rozmiar: 21.30 GB
Wstawił: kaszub87
Seed(ów): 15
Leecher(ów): 6
Pobrane: 3095
Komentarzy: 0


Torrent

  • Currently 0.00/5

gatunek: Fantasy, Przygodowy
produkcja: Nowa Zelandia, USA
premiera: 28 grudnia 2012 (Polska) 28 listopada 2012 (świat)
czas trwania 157 min
reżyseria: Peter Jackson
scenariusz: Guillermo del Toro, Peter Jackson, Fran Walsh, Philippa Boyens


\\\"Hobbit\\\" - filmowa adaptacja książki J.R.R. Tolkiena, wstęp do \\\"Władcy Pierścieni\\\", to opowieść pełna niezwykłych wydarzeń i magicznych postaci, przedstawiająca odwieczną walkę dobra ze złem. Hobbit Bilbo Baggins niechętnie wyrusza w niezwykłą i niebezpieczną podróż. Pokierowany przez czarodzieja Gandalfa opuszcza swój przytulny domek w Shire, by wraz z trzynastoma krasnoludami zmierzyć się ze smokiem Smaugiem.


Andy Serkis - Gollum
Martin Freeman - Bilbo Baggins
Hugo Weaving - Elrond
James Nesbitt - Bofur
Graham McTavish - Dwalin
Ian McKellen -Gandalf



Video

Format : AVC
Format/Info : Advanced Video Codec
Format profile : High@L4.1
Format settings, CABAC : Yes
Format settings, ReFrames : 11 frames
Codec ID : V_MPEG4/ISO/AVC
Duration : 3h 2mn
Bit rate : 13.9 Mbps
Nominal bit rate : 10.5 Mbps
Width : 1 280 pixels
Height : 534 pixels
Display aspect ratio : 2.4...

[ Zobacz cały opis... ]


Ig?a - Needle *2010* [720p] [BluRay] [AC3] [x264-Zet] [Lektor PL]
Kategoria: Filmy » Filmy X264
Dodane: 24/11/2013
Rozmiar: 3.43 GB
Wstawił: Zbyszek2874
Seed(ów): 4
Leecher(ów): 1
Pobrane: 49
Komentarzy: 0


Torrent

  • Currently 0.00/5


Tytuł: Needle
Polski Tytuł: Igła
====================

Produkcja: Australia
Gatunek: Horror
Czas trwania: 84 min.
Premiera: 27.08.2010 - wiat
Reżyseria: John V. Soto
Scenariusz: Anthony Egan, John V. Soto




Ben jest studentem, który po śmierci ojca otrzymuje tajemnicze pudełko z napisem \\\"La Vaudou Mort\\\". Zafascynowany jego wyglądem postanawia pokazać je swoim najbliższym przyjaciołom. Następnego dnia w niewyjaśnionych okolicznościach ginie jeden z kolegów Bena...



Michael Dorman ... Ben Rutherford
Travis Fimmel ... Marcus
Trilby Glover ... Isabel
Jessica Marais ... Kandi
Nathaniel Buzolic ... Ryan
Khan Chittenden ... Jed
Luke Carroll ... Nelson
Ben Mendelsohn ... Det. Meares




Format : Matroska at 5.742 Kb/s
Length : 3,43 GB for 1h 25 min. 32s 700ms

Video #0 : AVC at 3.983 Kb/s
Aspect : 1280 x 534 (2.397) at 25.000 fps

Audio #0 : AC-3 at 256 Kb/s
Infos : 2 kanały, 48,0 KHz
Language : pl

Audio #1 : DTS at 1.509 Kb/s
Infos : 6 kanałów, 48,0 KHz
Language : en

RUS | TV-Zet


[ Zobacz cały opis... ]


Gwiezdne wojny: Cz??? VI - Powr?t Jedi-Star Wars: Episode VI - Return of the Jedi *1983* [BRRip] [miniHD] [720p] [x264] [AC3] [DUBBING PL]
Kategoria: Filmy » Filmy X264
Dodane: 24/11/2013
Rozmiar: 2.73 GB
Wstawił: kaszub87
Seed(ów): 0
Leecher(ów): 0
Pobrane: 0
Komentarzy: 0


Torrent

  • Currently 0.00/5


gatunek: Przygodowy, Sci-Fi
produkcja: USA
premiera: 18 kwietnia 1997 (Polska) 25 maja 1983 (świat)
reżyseria: Richard Marquand
scenariusz: George Lucas, Lawrence Kasdan



Luke Skywalker i księżniczka Leia wyruszają na ratunek porwanemu Hanowi Solo. Zbliża się ostateczna bitwa Rebeliantów z Imperium.



Mark Hamill ---- Luke Skywalker
Harrison Ford ---- Han Solo
Carrie Fisher ---- Księżniczka Leia Organa
Billy Dee Williams ---- Lando Calrissian
Anthony Daniels ---- C-3PO
Peter Mayhew ---- Chewbacca
Sebastian Shaw ---- Anakin Skywalker
Ian McDiarmid ---- Imperator Palpatine



format.....................................avi
rozdzielczość..........................1280x544
kodek wideo............................AVC x264
fps...........................................23.976
gęstość bitowa........................2500 kbps
kodek audio............................Dolby Digital (AC-3)
kanały.....................................6 - Surround 5.1
częstotliwość próbkowania......48 kHz
gęstość bitowa........................384 kbps
czas........................................2 godz. 14 min


[ Zobacz cały opis... ]


Gwiezdne wojny: Cz??? V - Imperium kontratakuje-Star Wars: Episode V - The Empire Strikes Back*1980*[BRRip] [miniHD] [720p] [x264] [AC3] [DUBBING PL]
Kategoria: Filmy » Filmy X264
Dodane: 22/11/2013
Rozmiar: 2.57 GB
Wstawił: kaszub87
Seed(ów): 0
Leecher(ów): 0
Pobrane: 0
Komentarzy: 0


Torrent

  • Currently 0.00/5

gatunek: Przygodowy, Sci-Fi
produkcja: USA
premiera: 4 kwietnia 1997  (Polska)  17 maja 1980  (świat)
reżyseria: Irvin Kershner
scenariusz: Lawrence Kasdan, Leigh Brackett


Imperium odkrywa bazę Rebeliantów na lodowej planecie Hoth. Luke Skywalker, Han Solo i księżniczka Leia muszą uciekać przed Darthem Vaderem i Imperatorem.


Mark Hamill  ----  Luke Skywalker  
Harrison Ford  ----  Han Solo  
Carrie Fisher Księżniczka Leia Organa
Billy Dee Williams  ----  Lando Calrissian  
Anthony Daniels  ----  C-3PO
David Prowse  ----  Darth Vader
Peter Mayhew  ----  Chewbacca
Kenny Baker  ----  R2-D2


format.....................................avi
rozdzielczość..........................1280x544
kodek wideo............................AVC x264
fps...........................................23.976
gęstość bitowa........................2500 kbps
kodek audio............................Dolby Digital (AC-3)
kanały.....................................6 - Surround 5.1
częstotliwość próbkowania......48 kHz
gęstość bitowa........................384 kbps
czas........................................2 godz. 7 min

[ Zobacz cały opis... ]


Gwiezdne wojny: Cz??? IV - Nowa nadzieja-Star Wars - A New Hope *1977*[BRRip] [miniHD] [720p] [x264] [AC3] [DUBBING PL]
Kategoria: Filmy » Filmy X264
Dodane: 22/11/2013
Rozmiar: 2.52 GB
Wstawił: kaszub87
Seed(ów): 0
Leecher(ów): 0
Pobrane: 0
Komentarzy: 0


Torrent

  • Currently 0.00/5

gatunek: Przygodowy, Sci-Fi
produkcja: USA
premiera: 21 marca 1997  (Polska)  25 maja 1977  (świat)
reżyseria: George Lucas
scenariusz: George Lucas


Złowrogie Imperium zawładnęło galaktyką. Uwięzionej przez Dartha Vadera księżniczce Lei z nieoczekiwaną pomocą przyjdą kosmiczny przemytnik Han Solo i młody Luke Skywalker.


Mark Hamill  ----  Luke Skywalker  
Harrison Ford  ----  Han Solo  
Carrie Fisher  ----  Księżniczka Leia Organa  
Peter Cushing  ----  Wielki Moff Wilhuff Tarkin  
Alec Guinness  ----  Ben Obi-Wan Kenobi  
Anthony Daniels  ----  C-3PO
Kenny Baker  ----  R2-D2
Peter Mayhew  ----  Chewbacca


format.....................................avi
rozdzielczość..........................1280x544
kodek wideo............................AVC x264
fps...........................................23.976
gęstość bitowa........................2500 kbps
kodek audio............................Dolby Digital (AC-3)
kanały.....................................6 - Surround 5.1
częstotliwość próbkowania......48 kHz
gęstość bitowa........................384 kbps
czas........................................2 godz. 5 min

[ Zobacz cały opis... ]


Gwiezdne wojny: Cz??? III - Zemsta Sith?w-Star Wars: Episode III - Revenge of the Sith*2005*[BRRip] [miniHD] [720p] [x264] [AC3] [DUBBING PL]
Kategoria: Filmy » Filmy X264
Dodane: 20/11/2013
Rozmiar: 2.83 GB
Wstawił: kaszub87
Seed(ów): 0
Leecher(ów): 0
Pobrane: 0
Komentarzy: 0


Torrent

  • Currently 0.00/5
Gwiezdne wojny: Część III - Zemsta Sithów-Star Wars: Episode III - Revenge of the Sith - 2005


gatunek: Przygodowy, Sci-Fi
produkcja: USA
premiera: 19 maja 2005  (Polska)  15 maja 2005  (świat)
reżyseria: George Lucas
scenariusz: George Lucas


Wojny Klonów dobiegają końca, jednak w galaktyce rośnie moc złowrogich Sithów. Czy Anakin Skywalker oprze się zakusom ciemnej strony Mocy?


Ewan McGregor  ----  Obi-Wan Kenobi  
Hayden Christensen  ----  Anakin Skywalker  
Natalie Portman  ----  Padm Amidala  
Ian McDiarmid  ----  Najwyższy Kanclerz Palpatine  
Samuel L. Jackson  ----  Mace Windu  
Christopher Lee  ----  Hrabia Dooku
Jimmy Smits  ----  Senator Bail Prestor Organa  
Frank Oz  ----  Yoda  (głos)


format.....................................avi
rozdzielczość..........................1280x720
kodek wideo............................AVC x264
fps...........................................23.976
gęstość bitowa........................2500 kbps
kodek audio............................Dolby Digital (AC-3)
kanały.....................................6 - Surround 5.1
częstotliwość próbkowania......48 kHz
gęstość bitow...

[ Zobacz cały opis... ]


Gwiezdne wojny: Cz??? II - Atak klon?w-Star Wars: Episode II - Attack of the Clones*2002*[BRRip] [miniHD] [720p] [x264] [AC3] [DUBBING PL]
Kategoria: Filmy » Filmy X264
Dodane: 19/11/2013
Rozmiar: 2.88 GB
Wstawił: kaszub87
Seed(ów): 0
Leecher(ów): 0
Pobrane: 0
Komentarzy: 0


Torrent

  • Currently 0.00/5




Tytuł: \\\"Gwiezdne wojny: Część II - Atak klonów\\\"-\\\"Star Wars: Episode II - Attack of the Clones\\\"
Gatunek: Przygodowy, Sci-Fi
Produkcja: USA
Premiera: 16 maja 2002  (Polska)  16 maja 2002  (świat)
Reżyseria: George Lucas
Scenariusz: George Lucas, Jonathan Hales


Demokratyczne rządy Republiki są zagrożone przez podstępnego hrabiego Dooku. Tymczasem Anakin Skywalker łamie reguły zakonu Jedi i zakochuje się.


Ewan McGregor  ----  Obi-Wan Kenobi  
Natalie Portman  ----  Padm Amidala  
Hayden Christensen  ----  Anakin Skywalker  
Ian McDiarmid  ----  Najwyższy Kanclerz Palpatine
Pernilla August  ----  Shmi Skywalker
Ahmed Best  ----  Jar Jar Binks / Achk Med-Beq
Anthony Daniels  ----  C-3PO / Dannl Faytonni
Samuel L. Jackson  ----  Mace Windu


format.....................................avi
rozdzielczość..........................1280x720
kodek wideo............................AVC x264
fps...........................................23.976
gęstość bitowa........................2500 kbps
kodek audio............................Dolby Digital (AC-3)
kanały.....................................6 - Surround 5.1
czę...

[ Zobacz cały opis... ]


Jak wytresowa? smoka-How to Train Your Dragon*2010*[720p] [mini.HD.x264] [AC3.J-23stan](Dubbing Pl)
Kategoria: Filmy » Filmy X264
Dodane: 19/11/2013
Rozmiar: 1.29 GB
Wstawił: kaszub87
Seed(ów): 54
Leecher(ów): 43
Pobrane: 133
Komentarzy: 0


Torrent

  • Currently 0.00/5

Gatunek: animacja
Reżyseria: Dean DeBlois  Chris Sanders
Premiery kinowe: Polska 09 kwiecień 2010
USA 26 marzec 2010

Producenci \\\"Shreka\\\", ?Madagaskaru\\\" i ?Kung Fu Pandy\\\" przedstawiają film na podstawie książki Cressidy Cowell  ?Jak wytresować smoka\\\", której akcja rozgrywa się w świecie Wikingów i dzikich smoków. Bohaterem filmu jest nastoletni Wiking mieszkający na wyspie Berk, gdzie walki ze smokami są codziennością. Zbliża się właśnie czas inicjacji i jedyna szansa na udowodnienie plemieniu i ojcu swojej wartości. Kiedy jednak okazuje się, że zamiast wytresować smoka, nastolatek zaprzyjania się z nim, cały


======================
Miłogost Reczek ... Stoick (polski dubbing)
Mateusz Damięcki ... Hiccup (Czkawka) (polski dubbing)
Julia Kamińska ... Astid (polski dubbing)
Tomasz Traczyński ... Gobber (polski dubbing)


========================================
Nazwa pliku: Jak wytresować smoka - 0.00.00-1.29.00.mkv
ID filmu: 7aacf2ee8dbe79d90f3086629f3a3f26

Rozmiar pliku: 1.288 GiB (1382980285 bajtów)
Czas trwania: 01:29:00.002 (5340002 ms)
Ogólne bitrate pliku: 2 072 Kbps
Format: Matroska

Vid...

[ Zobacz cały opis... ]


Gwiezdne wojny: Cz??? I - Mroczne widmo-Star Wars: Episode I - The Phantom Menace*1999* [BRRip] [miniHD] [720p] [x264] [AC3] [DUBBING PL]
Kategoria: Filmy » Filmy X264
Dodane: 18/11/2013
Rozmiar: 2.75 GB
Wstawił: kaszub87
Seed(ów): 0
Leecher(ów): 0
Pobrane: 0
Komentarzy: 0


Torrent

  • Currently 0.00/5

gatunek: Przygodowy, Sci-Fi
produkcja: USA
premiera: 10 lutego 2012 (Polska) 19 maja 1999 (świat)
reżyseria: George Lucas
scenariusz: George Lucas



Dwaj rycerze Jedi wyruszają z misją ocalenia planety Naboo przed inwazją wojsk Federacji Handlowej. Trafiają na pustynny glob, gdzie pomoże im mały Anakin Skywalker.



Liam Neeson ---- Qui-Gon Jinn
Ewan McGregor ---- Obi-Wan Kenobi
Natalie Portman ---- Królowa Amidala / Padm
Jake Lloyd ---- Anakin Skywalker
Ian McDiarmid ---- Senator Palpatine
Pernilla August ---- Shmi Skywalker
Oliver Ford Davies ---- Sio Bibble
Hugh Quarshie ---- Kapitan Panaka



format.....................................avi
rozdzielczość..........................1280x544
kodek wideo............................AVC x264
fps...........................................23.976
gęstość bitowa........................2500 kbps
kodek audio............................Dolby Digital (AC-3)
kanały.....................................6 - Surround 5.1
częstotliwość próbkowania......48 kHz
gęstość bitowa........................384 kbps
czas........................................2 godz. 16 min


[ Zobacz cały opis... ]


Smerfy 2 - The Smurfs 2 *2013* [1080p.BluRay.AVC.DTS-HD.MA.5.1-PublicHD] [Dubbing i Napisy PL]
Kategoria: Filmy » Filmy X264
Dodane: 17/11/2013
Rozmiar: 34.15 GB
Wstawił: Zbyszek2874
Seed(ów): 0
Leecher(ów): 0
Pobrane: 0
Komentarzy: 0


Torrent

  • Currently 0.00/5


SEED JEST
===========

gatunek: AnimacjaFamilijnyFantasy
produkcja: USA
premiera: 2 sierpnia 2013 (Polska) 31 lipca 2013 (świat)
reżyseria: Raja Gosnell
scenariusz: J. David StemDavid N. WeissJay ScherickDavid RonnKarey Kirkpatrick





[b] Uwielbiane Smerfy powracają znowu! W kolejnym filmie familijnym łączącym żywą akcję z animacją, komedii \\\"Smerfy 2\\\", zły czarownik Gargamel tworzy kilka złośliwych Smerfopodobnych kreatur zwanych Naughties mając nadzieję, że pozwolą mu one posiąść pełną mocy, magiczną istotę Smerfów. Kiedy jednak odkrywa, że tylko prawdziwe Smerfy mogą dać mu to, czego pragnie i tylko sekretne zaklęcie znane Smerfetce może zamienić Naughties w Smerfy, Gargamel decyduje się porwać Smerfetkę /w polskiej wersji Małgorzata Socha/ i zabiera ją do Paryża, gdzie jako największy czarownik na świecie zostaje otoczony uwielbieniem milionów. Teraz Papa Smerf, Gapcio, Maruda i Laluś będą musieli powrócić do naszego świata, połączyć siły z przyjaciółmi Patrickiem i Grace Winslow i uratować Smerfetkę! Czy Smerfetka, która zawsze czuła się inna, nawiąże relacje z Naughties - Vexy /w polskiej wersji Agnieszka Dygant/ i Hackusem? Czy Smerfom uda się przekonać ją, że ich miłość d...

[ Zobacz cały opis... ]


Cz?owiek ze stali - Man of steel *2013* [1080p] [BluRay] [AC3] [x264-SAVED] [Lektor PL]
Kategoria: Filmy » Filmy X264
Dodane: 19/10/2013
Rozmiar: 10.47 GB
Wstawił: Zbyszek2874
Seed(ów): 3
Leecher(ów): 1
Pobrane: 56
Komentarzy: 0


Torrent

  • Currently 0.00/5



PREMIERA LEKTOR PL 1080p
=========================
Tytuł: Man of Steel
Polski Tytuł: Człowiek ze stali  
====================

Ocena: IMDB - 7.6/10 (234.143), Filmweb - 6.8/10 (22.187)
Produkcja: Kanada, USA, Wielka Brytania
Gatunek: Akcja, Sci-Fi
Czas trwania: 143 min.
Premiera: 21.06.2013 - Polska, 12.06.2013 - wiat
Reżyseria: Zack Snyder
Scenariusz: David S. Goyer




Młody chłopiec dowiaduje się, że jest nie z tej ziemi i posiada nadprzyrodzone moce. Jako młody mężczyzna podróżuje, aby dowiedzieć się, skąd pochodzi i jaka jest jego misja. Ukryty w nim bohater musi się ujawnić, jeśli ma ocalić świat przed zagładą i stać się symbolem nadziei całej ludzkości.



Henry Cavill ... Clark Kent / Kal-El
Amy Adams ... Lois Lane
Michael Shannon ... General Zod
Diane Lane ... Martha Kent
Russell Crowe ... Jor-El




[b][i]Release Date ........: 19.10.2013
Source V/A.............: BluRayx264/CEE
Ripper...............: SAVED
Language.............: Polish,English
Subtitles............: N/A
Video Codec/Bitrate..:x264/8 331 Kbps
Frame Rate ..........: 23,...

[ Zobacz cały opis... ]




Overall 806 items in 22 pages, showing 37 per page.

Pages:  1 2 3 ... 20 21 22  »

Uwaga !
Żaden z plików nie znajduje się na serwerze. Torrenty są własnością użytkowników. Administrator serwisu nie może ponieść konsekwencji za to co użytkownicy wstawiają, lub za to co czynią na stronie. Nie możesz używać tego serwisu do rozpowszechniania lub ściągania materiałów do których nie masz odpowiednich praw lub licencji. Użytkownicy odpowiedzialni są za przestrzeganie tych zasad.

site engine

[ Script Execution time: 0.0628 sec. ] - [ GZIP: enabled ]